war-film.zone

War fórum které se speciálně věnuje FILMŮM, seriálů, a soundtreků .
 
PříjemPortálFAQHledatRegistraceSeznam uživatelůUživatelské skupinyPřihlášeníReklamní agentura AHNE agency byla založena v roce 2002. Nabízím

Share | 
 

 Underworld: Probuzení / Underworld: Awakening (2012) ( HD )

Goto down 
AutorZpráva
Jack86



Po?et p?ísp?vk? : 110
Join date : 12. 06. 09

PříspěvekPředmět: Underworld: Probuzení / Underworld: Awakening (2012) ( HD )   Thu Apr 19, 2012 8:16 pm



Akční / Fantasy / Horor
USA, 2012, 89 min

Režie: Måns Mårlind, Björn Stein
Hrají: Kate Beckinsale, Scott Speedman, Charles Dance, India Eisley, Michael Ealy, Stephen Rea, Theo James, Sandrine Holt, Dan Payne, Kristen Holden - Ried, Daniel Boileau, Wes Bentley, Panou, Shane Brolly, Sophia Myles




Od chvíle, kdy Selene se svým lidsko-lykanským milencem Michaelem zničili prastarého upíra Marcuse ve filmu Underworld: Evolution, uběhlo již patnáct let. V jejich průběhu lidstvo odhalilo existenci jak upírů, tak lykanů, a rozpoutalo válku s cílem obě rasy vyhladit. Selene, která byla v průběhu genocidy zajata, se po více než deseti letech probouzí jako vězeň v neprodyšně uzavřené laboratoři společnosti Antigen, mocné korporace, která se snaží vyvinout vakcínu proti virům, jenž mají na svědomí existenci upírů a lykanů. Selene je zničena zjištěním, že Mic…

[size=140]Underworld.Awakening.2012.720p.BluRay.Eng-DON[/size]

kód:
Underworld.Awakening.2012.720p.BluRay.Eng-DON
Format                                  : Matroska
Format version                          : Version 2
File size                                : 4.25 GiB
Duration                                : 1h 28mn
Overall bit rate                        : 6 865 Kbps
Movie name                              : Underworld: Awakening (2012) - Release for HDCLUB by extreme94 (DON)
Encoded date                            : UTC 2012-04-18 10:15:28
Writing application                      : mkvmerge v5.4.0 ('Piper') built on Mar 10 2012 13:34:39
Writing library                          : libebml v1.2.3 + libmatroska v1.3.0

Video
ID                                      : 1
Format                                  : AVC
Format/Info                              : Advanced Video Codec
Format profile                          : High@L4.1
Format settings, CABAC                  : Yes
Format settings, ReFrames                : 12 frames
Codec ID                                : V_MPEG4/ISO/AVC
Duration                                : 1h 28mn
Bit rate                                : 5 218 Kbps
Width                                    : 1 280 pixels
Height                                  : 534 pixels
Display aspect ratio                    : 2.40:1
Frame rate                              : 23.976 fps
Color space                              : YUV
Chroma subsampling                      : 4:2:0
Bit depth                                : 8 bits
Scan type                                : Progressive
Bits/(Pixel*Frame)                      : 0.318
Stream size                              : 3.23 GiB (76%)
Title                                    : Release for HDCLUB by extreme94 (DON)
Writing library                          : x264 core 122 r2184 5c85e0a
Encoding settings                        : cabac=1 / ref=12 / deblock=1:-1:-1 / analyse=0x3:0x113 / me=umh / subme=7 / psy=1 / psy_rd=1.05:0.05 / mixed_ref=1 / me_range=32 / chroma_me=1 / trellis=1 / 8x8dct=1 / cqm=0 / deadzone=21,11 / fast_pskip=0 / chroma_qp_offset=-3 / threads=12 / sliced_threads=0 / nr=0 / decimate=0 / interlaced=0 / bluray_compat=0 / constrained_intra=0 / bframes=7 / b_pyramid=2 / b_adapt=1 / b_bias=0 / direct=1 / weightb=1 / open_gop=0 / weightp=2 / keyint=250 / keyint_min=23 / scenecut=40 / intra_refresh=0 / rc=crf / mbtree=0 / crf=18.0 / qcomp=0.60 / qpmin=0 / qpmax=69 / qpstep=4 / ip_ratio=1.40 / pb_ratio=1.30 / aq=1:1.10
Language                                : English
Default                                  : Yes
Forced                                  : No

Audio
ID                                      : 2
Format                                  : DTS
Format/Info                              : Digital Theater Systems
Codec ID                                : A_DTS
Duration                                : 1h 28mn
Bit rate mode                            : Constant
Bit rate                                : 1 510 Kbps
Channel(s)                              : 6 channels
Channel positions                        : Front: L C R, Side: L R, LFE
Sampling rate                            : 48.0 KHz
Bit depth                                : 16 bits
Compression mode                        : Lossy
Stream size                              : 957 MiB (22%)
Title                                    : DTS 5.1 1536 kbps
Language                                : English
Default                                  : Yes
Forced                                  : No

Text #1
ID                                      : 3
Format                                  : UTF-8
Codec ID                                : S_TEXT/UTF8
Codec ID/Info                            : UTF-8 Plain Text
Language                                : English
Default                                  : No
Forced                                  : No

Text #2
ID                                      : 4
Format                                  : VobSub
Muxing mode                              : zlib
Codec ID                                : S_VOBSUB
Codec ID/Info                            : The same subtitle format used on DVDs
Language                                : Czech
Default                                  : Yes
Forced                                  : No

Sample
kód:
http://sharerapid.biz/stahuj/3613458/unaw-2012-720p-eng.mkv?dealer_id=29875

4x900 MB / 1x882.09 MB
kód:

http://sharerapid.biz/stahuj/3613440/unaw-2012-720p-eng-part1.rar?dealer_id=29875
http://sharerapid.biz/stahuj/3613443/unaw-2012-720p-eng-part2.rar?dealer_id=29875
http://sharerapid.biz/stahuj/3613446/unaw-2012-720p-eng-part3.rar?dealer_id=29875
http://sharerapid.biz/stahuj/3613449/unaw-2012-720p-eng-part4.rar?dealer_id=29875
http://sharerapid.biz/stahuj/3613457/unaw-2012-720p-eng-part5.rar?dealer_id=29875

kód:

http://euroshare.eu/file/9103367/unaw.2012.720p.eng.part1.rar
http://euroshare.eu/file/9103716/unaw.2012.720p.eng.part2.rar
http://euroshare.eu/file/9103926/unaw.2012.720p.eng.part3.rar
http://euroshare.eu/file/9104093/unaw.2012.720p.eng.part4.rar
http://euroshare.eu/file/9104313/unaw.2012.720p.eng.part5.rar

kód:

http://www.fastshare.cz/1417388/unaw.2012.720p.eng.part1.rar
http://www.fastshare.cz/1417392/unaw.2012.720p.eng.part2.rar
http://www.fastshare.cz/1417398/unaw.2012.720p.eng.part3.rar
http://www.fastshare.cz/1417403/unaw.2012.720p.eng.part4.rar
http://www.fastshare.cz/1417406/unaw.2012.720p.eng.part5.rar

kód:

http://download.hellshare.com/unaw-2012-720p-eng-part1-rar/6786676/
http://download.hellshare.com/unaw-2012-720p-eng-part2-rar/6786716/
http://download.hellshare.com/unaw-2012-720p-eng-part3-rar/6786770/
http://download.hellshare.com/unaw-2012-720p-eng-part4-rar/6786806/
http://download.hellshare.com/unaw-2012-720p-eng-part5-rar/6787137/

kód:

http://czshare.com/2853474/UnAw.2012.720p.Eng.part1.rar
http://czshare.com/2853496/UnAw.2012.720p.Eng.part3.rar
http://czshare.com/2853498/UnAw.2012.720p.Eng.part5.rar
http://czshare.com/2853617/UnAw.2012.720p.Eng.part4.rar
http://czshare.com/2853618/UnAw.2012.720p.Eng.part2.rar


Upload 3% na oprawu dat

no pass
Návrat nahoru Goto down
Zobrazit informace o autorovi
Jack86



Po?et p?ísp?vk? : 110
Join date : 12. 06. 09

PříspěvekPředmět: Re: Underworld: Probuzení / Underworld: Awakening (2012) ( HD )   Thu Apr 19, 2012 8:16 pm



Akční / Fantasy / Horor
USA, 2012, 89 min

Režie: Måns Mårlind, Björn Stein
Hrají: Kate Beckinsale, Scott Speedman, Charles Dance, India Eisley, Michael Ealy, Stephen Rea, Theo James, Sandrine Holt, Dan Payne, Kristen Holden - Ried, Daniel Boileau, Wes Bentley, Panou, Shane Brolly, Sophia Myles




Od chvíle, kdy Selene se svým lidsko-lykanským milencem Michaelem zničili prastarého upíra Marcuse ve filmu Underworld: Evolution, uběhlo již patnáct let. V jejich průběhu lidstvo odhalilo existenci jak upírů, tak lykanů, a rozpoutalo válku s cílem obě rasy vyhladit. Selene, která byla v průběhu genocidy zajata, se po více než deseti letech probouzí jako vězeň v neprodyšně uzavřené laboratoři společnosti Antigen, mocné korporace, která se snaží vyvinout vakcínu proti virům, jenž mají na svědomí existenci upírů a lykanů. Selene je zničena zjištěním, že Mic…

[size=140]Underworld.Awakening.2012.720p.BluRay.Eng-DON[/size]

kód:
Underworld.Awakening.2012.720p.BluRay.Eng-DON
Format                                  : Matroska
Format version                          : Version 2
File size                                : 4.64 GiB
Duration                                : 1h 28mn
Overall bit rate                        : 7 505 Kbps
Movie name                              : Underworld: Awakening (2012) - Release for HDCLUB by extreme94 (DON)
Encoded date                            : UTC 2012-04-18 11:29:42
Writing application                      : mkvmerge v5.4.0 ('Piper') built on Mar 10 2012 13:34:39
Writing library                          : libebml v1.2.3 + libmatroska v1.3.0

Video
ID                                      : 1
Format                                  : AVC
Format/Info                              : Advanced Video Codec
Format profile                          : High@L4.1
Format settings, CABAC                  : Yes
Format settings, ReFrames                : 12 frames
Codec ID                                : V_MPEG4/ISO/AVC
Duration                                : 1h 28mn
Bit rate                                : 5 206 Kbps
Width                                    : 1 280 pixels
Height                                  : 534 pixels
Display aspect ratio                    : 2.40:1
Frame rate                              : 23.976 fps
Color space                              : YUV
Chroma subsampling                      : 4:2:0
Bit depth                                : 8 bits
Scan type                                : Progressive
Bits/(Pixel*Frame)                      : 0.318
Stream size                              : 3.22 GiB (69%)
Title                                    : Release for HDCLUB by extreme94 (DON)
Writing library                          : x264 core 122 r2184 5c85e0a
Encoding settings                        : cabac=1 / ref=12 / deblock=1:-1:-1 / analyse=0x3:0x113 / me=umh / subme=7 / psy=1 / psy_rd=1.05:0.05 / mixed_ref=1 / me_range=32 / chroma_me=1 / trellis=1 / 8x8dct=1 / cqm=0 / deadzone=21,11 / fast_pskip=0 / chroma_qp_offset=-3 / threads=12 / sliced_threads=0 / nr=0 / decimate=0 / interlaced=0 / bluray_compat=0 / constrained_intra=0 / bframes=7 / b_pyramid=2 / b_adapt=1 / b_bias=0 / direct=1 / weightb=1 / open_gop=0 / weightp=2 / keyint=250 / keyint_min=23 / scenecut=40 / intra_refresh=0 / rc=crf / mbtree=0 / crf=18.0 / qcomp=0.60 / qpmin=0 / qpmax=69 / qpstep=4 / ip_ratio=1.40 / pb_ratio=1.30 / aq=1:1.10
Language                                : English
Default                                  : Yes
Forced                                  : No

Audio #1
ID                                      : 2
Format                                  : DTS
Format/Info                              : Digital Theater Systems
Codec ID                                : A_DTS
Duration                                : 1h 28mn
Bit rate mode                            : Constant
Bit rate                                : 1 510 Kbps
Channel(s)                              : 6 channels
Channel positions                        : Front: L C R, Side: L R, LFE
Sampling rate                            : 48.0 KHz
Bit depth                                : 16 bits
Compression mode                        : Lossy
Stream size                              : 957 MiB (20%)
Title                                    : DTS 5.1 1536 kbps
Language                                : English
Default                                  : No
Forced                                  : No

Audio #2
ID                                      : 5
Format                                  : AC-3
Format/Info                              : Audio Coding 3
Mode extension                          : CM (complete main)
Codec ID                                : A_AC3
Duration                                : 1h 28mn
Bit rate mode                            : Constant
Bit rate                                : 640 Kbps
Channel(s)                              : 6 channels
Channel positions                        : Front: L C R, Side: L R, LFE
Sampling rate                            : 48.0 KHz
Bit depth                                : 16 bits
Compression mode                        : Lossy
Stream size                              : 405 MiB (9%)
Title                                    : DD 5.1
Language                                : Czech
Default                                  : Yes
Forced                                  : No

Text #1
ID                                      : 3
Format                                  : UTF-8
Codec ID                                : S_TEXT/UTF8
Codec ID/Info                            : UTF-8 Plain Text
Language                                : English
Default                                  : No
Forced                                  : No

Text #2
ID                                      : 4
Format                                  : VobSub
Muxing mode                              : zlib
Codec ID                                : S_VOBSUB
Codec ID/Info                            : The same subtitle format used on DVDs
Language                                : Czech
Default                                  : No
Forced                                  : No

Sample
kód:
http://sharerapid.biz/stahuj/3613782/unaw-2012-720p-eng-cz.mkv?dealer_id=29875

5x900 MB / 1x400.59 MB
kód:

http://sharerapid.biz/stahuj/3613724/unaw-2012-720p-eng-cz-part1.rar?dealer_id=29875
http://sharerapid.biz/stahuj/3613729/unaw-2012-720p-eng-cz-part2.rar?dealer_id=29875
http://sharerapid.biz/stahuj/3613738/unaw-2012-720p-eng-cz-part3.rar?dealer_id=29875
http://sharerapid.biz/stahuj/3613748/unaw-2012-720p-eng-cz-part4.rar?dealer_id=29875
http://sharerapid.biz/stahuj/3613759/unaw-2012-720p-eng-cz-part5.rar?dealer_id=29875
http://sharerapid.biz/stahuj/3613778/unaw-2012-720p-eng-cz-part6.rar?dealer_id=29875

kód:

http://euroshare.eu/file/9109847/unaw.2012.720p.eng.cz.part1.rar
http://euroshare.eu/file/9110019/unaw.2012.720p.eng.cz.part2.rar
http://euroshare.eu/file/9110184/unaw.2012.720p.eng.cz.part3.rar
http://euroshare.eu/file/9110400/unaw.2012.720p.eng.cz.part4.rar
http://euroshare.eu/file/9110568/unaw.2012.720p.eng.cz.part5.rar
http://euroshare.eu/file/9110685/unaw.2012.720p.eng.cz.part6.rar

kód:

http://www.fastshare.cz/1417571/unaw.2012.720p.eng.cz.part1.rar
http://www.fastshare.cz/1417577/unaw.2012.720p.eng.cz.part2.rar
http://www.fastshare.cz/1417583/unaw.2012.720p.eng.cz.part3.rar
http://www.fastshare.cz/1417590/unaw.2012.720p.eng.cz.part4.rar
http://www.fastshare.cz/1417597/unaw.2012.720p.eng.cz.part5.rar
http://www.fastshare.cz/1417601/unaw.2012.720p.eng.cz.part6.rar

kód:

http://download.hellshare.com/unaw-2012-720p-eng-cz-part5-rar/6788424/
http://download.hellshare.com/unaw-2012-720p-eng-cz-part6-rar/6788476/
http://download.hellshare.com/unaw-2012-720p-eng-cz-part3-rar/6788592/
http://download.hellshare.com/unaw-2012-720p-eng-cz-part4-rar/6788653/
http://download.hellshare.com/unaw-2012-720p-eng-cz-part1-rar/6788700/
http://download.hellshare.com/unaw-2012-720p-eng-cz-part2-rar/6789575/

kód:

http://czshare.com/2853432/UnAw.2012.720p.Eng.Cz.part3.rar
http://czshare.com/2853516/UnAw.2012.720p.Eng.Cz.part4.rar
http://czshare.com/2853564/UnAw.2012.720p.Eng.Cz.part5.rar
http://czshare.com/2853620/UnAw.2012.720p.Eng.Cz.part6.rar
http://czshare.com/2853653/UnAw.2012.720p.Eng.Cz.part1.rar
http://czshare.com/2853716/UnAw.2012.720p.Eng.Cz.part2.rar


Upload 3% na oprawu dat

no pass
Návrat nahoru Goto down
Zobrazit informace o autorovi
 
Underworld: Probuzení / Underworld: Awakening (2012) ( HD )
Návrat nahoru 
Strana 1 z 1

Povolení tohoto fóra:Nemůžete odpovídat na témata v tomto fóru
war-film.zone :: Films :: Horrors-
Přejdi na: